osu file format v14

[General]
AudioFilename: connect_r.mp3
AudioLeadIn: 2000
PreviewTime: 66840
Countdown: 0
SampleSet: Normal
StackLeniency: 0.7
Mode: 1
LetterboxInBreaks: 0
WidescreenStoryboard: 0

[Editor]
Bookmarks: 66840
DistanceSpacing: 1
BeatDivisor: 4
GridSize: 32
TimelineZoom: 1

[Metadata]
Title:CONNECT r
TitleUnicode:CONNECT γ
Artist:remixed celas vs 44teru-k
ArtistUnicode:remixed celas vs 44teru-k
Creator:dialgadu77
Version:Futsuu
Source:BMS
Tags:gamma mahou shoujo puella magi madoka magica madomagi creation anime hardcore
BeatmapID:204158
BeatmapSetID:71163

[Difficulty]
HPDrainRate:4
CircleSize:5
OverallDifficulty:4
ApproachRate:5
SliderMultiplier:1.4
SliderTickRate:1

[Events]
//Background and Video events
0,0,"mdk_ichiou.jpg",0,0
//Break Periods
//Storyboard Layer 0 (Background)
//Storyboard Layer 1 (Fail)
//Storyboard Layer 2 (Pass)
//Storyboard Layer 3 (Foreground)
//Storyboard Sound Samples
//Background Colour Transformations
3,100,163,162,255

[TimingPoints]
1011,342.857142857143,4,1,0,70,1,0
1011,-100,4,1,0,70,0,0
66840,-100,4,1,0,70,0,1
76268,-100,4,1,0,70,0,0
78154,-100,4,1,0,70,0,1
79697,-100,4,1,0,70,0,0
80382,-100,4,1,0,70,0,1
88782,-100,4,1,0,70,0,0

[HitObjects]
256,192,1011,21,12,0:0:0:0:
256,192,1697,1,0,0:0:0:0:
256,192,2382,1,8,0:0:0:0:
256,192,2725,1,0,0:0:0:0:
256,192,3068,1,8,0:0:0:0:
256,192,3754,1,8,0:0:0:0:
256,192,4440,1,0,0:0:0:0:
256,192,5125,1,8,0:0:0:0:
256,192,5468,1,0,0:0:0:0:
256,192,5811,1,0,0:0:0:0:
256,192,6154,1,0,0:0:0:0:
256,192,6497,1,8,0:0:0:0:
256,192,7182,1,12,0:0:0:0:
256,192,7868,1,8,0:0:0:0:
256,192,8211,1,0,0:0:0:0:
256,192,8554,1,0,0:0:0:0:
256,192,8897,1,8,0:0:0:0:
256,192,9068,1,8,0:0:0:0:
256,192,9240,1,0,0:0:0:0:
256,192,9925,1,8,0:0:0:0:
256,192,10611,1,0,0:0:0:0:
256,192,11297,1,8,0:0:0:0:
256,192,11982,5,12,0:0:0:0:
256,192,12325,1,8,0:0:0:0:
256,192,12668,5,0,0:0:0:0:
256,192,13011,5,8,0:0:0:0:
256,192,13182,1,8,0:0:0:0:
256,192,13525,1,8,0:0:0:0:
256,192,13697,1,8,0:0:0:0:
256,192,14040,1,0,0:0:0:0:
256,192,14725,1,4,0:0:0:0:
256,192,15068,1,0,0:0:0:0:
256,192,15411,1,8,0:0:0:0:
256,192,15754,1,0,0:0:0:0:
256,192,15925,1,0,0:0:0:0:
256,192,16268,1,0,0:0:0:0:
256,192,16440,1,0,0:0:0:0:
256,192,16782,1,8,0:0:0:0:
256,192,17468,1,8,0:0:0:0:
256,192,17811,1,12,0:0:0:0:
256,192,18154,5,0,0:0:0:0:
256,192,18497,5,8,0:0:0:0:
256,192,18668,1,8,0:0:0:0:
256,192,19011,5,0,0:0:0:0:
256,192,19182,1,0,0:0:0:0:
256,192,19525,5,8,0:0:0:0:
256,192,19782,1,8,0:0:0:0:
256,192,20040,1,8,0:0:0:0:
256,192,20211,1,0,0:0:0:0:
256,192,20554,5,0,0:0:0:0:
256,192,20897,1,0,0:0:0:0:
256,192,21240,1,8,0:0:0:0:
256,192,21411,1,8,0:0:0:0:
256,192,21754,1,0,0:0:0:0:
256,192,21925,1,0,0:0:0:0:
256,192,22268,5,8,0:0:0:0:
256,192,22525,1,0,0:0:0:0:
256,192,22782,1,8,0:0:0:0:
256,192,22954,1,8,0:0:0:0:
256,192,23297,5,0,0:0:0:0:
256,192,23640,1,0,0:0:0:0:
256,192,23982,1,0,0:0:0:0:
256,192,24325,1,8,0:0:0:0:
256,192,24668,1,8,0:0:0:0:
256,192,25011,1,0,0:0:0:0:
256,192,25697,1,0,0:0:0:0:
256,192,26040,1,0,0:0:0:0:
256,192,26382,1,0,0:0:0:0:
256,192,26725,1,8,0:0:0:0:
256,192,27068,1,8,0:0:0:0:
256,192,27411,1,0,0:0:0:0:
256,192,27754,1,8,0:0:0:0:
256,192,28440,1,0,0:0:0:0:
256,192,28782,5,8,0:0:0:0:
256,192,29125,5,0,0:0:0:0:
256,192,29468,5,8,0:0:0:0:
256,192,29811,5,0,0:0:0:0:
256,192,30154,5,8,0:0:0:0:
256,192,30497,5,0,0:0:0:0:
256,192,31182,1,0,0:0:0:0:
256,192,31525,5,8,0:0:0:0:
256,192,31868,5,0,0:0:0:0:
256,192,32211,5,8,0:0:0:0:
256,192,32554,1,12,0:0:0:0:
256,192,33240,1,12,0:0:0:0:
256,192,33582,5,0,0:0:0:0:
256,192,33925,5,12,0:0:0:0:
256,192,34268,5,0,0:0:0:0:
256,192,34611,1,0,0:0:0:0:
256,192,35125,5,8,0:0:0:0:
256,192,35640,5,0,0:0:0:0:
256,192,35982,1,0,0:0:0:0:
256,192,36325,5,8,0:0:0:0:
256,192,36668,5,0,0:0:0:0:
256,192,37011,1,0,0:0:0:0:
256,192,37354,1,0,0:0:0:0:
256,192,37697,5,8,0:0:0:0:
256,192,38040,5,0,0:0:0:0:
256,192,38382,1,0,0:0:0:0:
256,192,38725,1,0,0:0:0:0:
256,192,39068,1,0,0:0:0:0:
256,192,39240,1,0,0:0:0:0:
256,192,39411,1,0,0:0:0:0:
256,192,39754,5,8,0:0:0:0:
256,192,40097,5,0,0:0:0:0:
256,192,40440,5,8,0:0:0:0:
256,192,40782,1,8,0:0:0:0:
256,192,41125,1,8,0:0:0:0:
256,192,41468,5,0,0:0:0:0:
256,192,41811,5,8,0:0:0:0:
256,192,42154,1,12,0:0:0:0:
256,192,42668,1,12,0:0:0:0:
256,192,43182,1,12,0:0:0:0:
256,192,43697,1,12,0:0:0:0:
256,192,44211,1,12,0:0:0:0:
256,192,44897,1,12,0:0:0:0:
256,192,45582,1,8,0:0:0:0:
256,192,46268,1,0,0:0:0:0:
256,192,46611,1,0,0:0:0:0:
256,192,46954,1,8,0:0:0:0:
256,192,47297,1,8,0:0:0:0:
256,192,47640,1,8,0:0:0:0:
256,192,47982,1,8,0:0:0:0:
256,192,48668,1,8,0:0:0:0:
256,192,49011,5,0,0:0:0:0:
256,192,49354,5,8,0:0:0:0:
256,192,49697,5,0,0:0:0:0:
256,192,50040,5,8,0:0:0:0:
256,192,50382,5,4,0:0:0:0:
256,192,50725,5,8,0:0:0:0:
256,192,51411,5,8,0:0:0:0:
256,192,51754,1,4,0:0:0:0:
256,192,52097,5,8,0:0:0:0:
256,192,52782,5,0,0:0:0:0:
256,192,53125,5,12,0:0:0:0:
256,192,53811,5,0,0:0:0:0:
256,192,54154,1,0,0:0:0:0:
256,192,54325,1,0,0:0:0:0:
256,192,54840,5,8,0:0:0:0:
256,192,55182,5,0,0:0:0:0:
256,192,55354,1,0,0:0:0:0:
256,192,55525,1,0,0:0:0:0:
256,192,55868,1,4,0:0:0:0:
256,192,56211,5,8,0:0:0:0:
256,192,56554,5,0,0:0:0:0:
256,192,56897,5,8,0:0:0:0:
256,192,57240,5,0,0:0:0:0:
256,192,57582,5,8,0:0:0:0:
256,192,58268,1,8,0:0:0:0:
256,192,58611,1,8,0:0:0:0:
256,192,58954,1,8,0:0:0:0:
256,192,59640,1,8,0:0:0:0:
256,192,59982,5,0,0:0:0:0:
256,192,60325,5,8,0:0:0:0:
256,192,60668,5,0,0:0:0:0:
256,192,61011,5,8,0:0:0:0:
256,192,61354,5,0,0:0:0:0:
256,192,61525,1,0,0:0:0:0:
256,192,61868,1,0,0:0:0:0:
256,192,62211,1,0,0:0:0:0:
256,192,62554,1,0,0:0:0:0:
256,192,62725,1,0,0:0:0:0:
256,192,62897,1,0,0:0:0:0:
256,192,63240,1,0,0:0:0:0:
256,192,63582,1,0,0:0:0:0:
256,192,63925,1,0,0:0:0:0:
256,192,64097,1,0,0:0:0:0:
256,192,64611,1,0,0:0:0:0:
256,192,64782,1,0,0:0:0:0:
256,192,65125,1,0,0:0:0:0:
256,192,65468,1,0,0:0:0:0:
256,192,66840,5,0,0:0:0:0:
256,192,67182,1,8,0:0:0:0:
256,192,67868,1,8,0:0:0:0:
256,192,68211,1,0,0:0:0:0:
256,192,68554,1,0,0:0:0:0:
256,192,68897,1,8,0:0:0:0:
256,192,69582,1,0,0:0:0:0:
256,192,69925,1,8,0:0:0:0:
256,192,70268,1,0,0:0:0:0:
256,192,70611,1,8,0:0:0:0:
256,192,70954,1,8,0:0:0:0:
256,192,71468,1,12,0:0:0:0:
256,192,71982,1,8,0:0:0:0:
256,192,72325,1,0,0:0:0:0:
256,192,72668,1,8,0:0:0:0:
256,192,73354,1,8,0:0:0:0:
256,192,73697,1,0,0:0:0:0:
256,192,74040,1,8,0:0:0:0:
256,192,74382,1,8,0:0:0:0:
256,192,74725,1,8,0:0:0:0:
256,192,75068,1,0,0:0:0:0:
256,192,75411,1,8,0:0:0:0:
256,192,75925,1,8,0:0:0:0:
256,192,76096,1,8,0:0:0:0:
256,192,76268,1,8,0:0:0:0:
256,192,76782,1,8,0:0:0:0:
256,192,77125,1,0,0:0:0:0:
256,192,77468,1,8,0:0:0:0:
256,192,78154,1,12,0:0:0:0:
256,192,78497,1,0,0:0:0:0:
256,192,78840,1,8,0:0:0:0:
256,192,79182,1,0,0:0:0:0:
256,192,79697,1,12,0:0:0:0:
256,192,80040,1,12,0:0:0:0:
256,192,80382,1,4,0:0:0:0:
256,192,80897,1,8,0:0:0:0:
256,192,81582,1,8,0:0:0:0:
256,192,81925,1,8,0:0:0:0:
256,192,82268,1,0,0:0:0:0:
256,192,82440,1,0,0:0:0:0:
256,192,82954,1,0,0:0:0:0:
256,192,83297,1,0,0:0:0:0:
256,192,83982,1,0,0:0:0:0:
256,192,84668,1,8,0:0:0:0:
256,192,85354,1,8,0:0:0:0:
256,192,86040,1,0,0:0:0:0:
256,192,86382,1,8,0:0:0:0:
256,192,86725,1,0,0:0:0:0:
256,192,87068,1,0,0:0:0:0:
256,192,87411,1,8,0:0:0:0:
256,192,88097,1,0,0:0:0:0:
256,192,88782,1,4,0:0:0:0:
